<?xml version="1.0" standalone="no"?>
<!DOCTYPE svg PUBLIC "-//W3C//DTD SVG 1.1//EN" "http://www.w3.org/Graphics/SVG/1.1/DTD/svg11.dtd" >
<svg xmlns="http://www.w3.org/2000/svg">
<metadata>Generated by IcoMoon</metadata>
<defs>
<font id="font-electro" horiz-adv-x="1024">
<font-face units-per-em="1024" ascent="960" descent="-64" />
<missing-glyph horiz-adv-x="1024" />
<glyph unicode="&#x20;" horiz-adv-x="0" d="" />
<glyph unicode="&#x41;" glyph-name="list-view-medium" d="M922 296h-564c-40 0-76-34-76-76 0-40 36-76 76-76h564c40 0 76 36 76 76 0 42-36 76-76 76zM102 912c-40 0-76-36-76-78 0-40 36-76 76-76 42 0 78 36 78 76 0 42-36 78-78 78zM358 758h564c40 0 76 36 76 76 0 42-36 78-76 78h-564c-40 0-76-36-76-78 0-40 36-76 76-76zM102 706c-40 0-76-36-76-76 0-42 36-78 76-78 42 0 78 36 78 78 0 40-36 76-78 76zM922 706h-564c-40 0-76-36-76-76 0-42 36-78 76-78h564c40 0 76 36 76 78 0 40-36 76-76 76zM102 502c-40 0-76-36-76-78 0-40 36-76 76-76 42 0 78 36 78 76 0 42-36 78-78 78zM922 502h-564c-40 0-76-36-76-78 0-40 36-76 76-76h564c40 0 76 36 76 76 0 42-36 78-76 78zM102 296c-40 0-76-34-76-76 0-40 36-76 76-76 42 0 78 36 78 76 0 42-36 76-78 76z" />
<glyph unicode="&#x42;" glyph-name="transport" d="M972 518c0 14-10 30-14 46-16 46-36 96-52 142-82 0-168 0-250 0 0 36 0 78 0 114-200 0-406 0-604 0 0-22 0-36 0-58 184 0 362 0 548 0 0-138 0-280 0-418-58 0-118 0-176 0-20 92-158 112-208 30-12-6-12-20-16-30-10 0-26 0-32 0 0 46 0 92 0 138-20 0-34 0-56 0 0-68 0-128 0-196 32 0 62 0 92 0 16-70 108-106 174-66 22 16 36 42 46 66 82 0 160 0 242 0 14-50 72-96 138-82 40 12 66 42 82 82 30 0 62 0 92 0 0 42 0 78 0 114-6 40 0 82-6 118zM256 296c-16 36 10 72 46 78 26 4 56-10 62-30 26-78-82-114-108-48zM716 296c-14 42 12 72 46 78 36 4 68-20 68-56 0-62-92-78-114-22zM912 344c-10 0-22 0-32 0-14 60-92 106-158 70-20-10-36-24-46-40-6-10-10-20-16-30-4 96 0 204 0 302 0 0 0 4 0 4 72 0 138 0 210 0 10-20 16-46 26-72s20-50 26-72c0-50-16-102-10-162zM338 706c-88 0-170 0-256 0-6-14 0-36 0-56 86 0 174 0 256 0 0 20 0 42 0 56zM282 538c0 20 0 36 0 56-56 0-114 0-170 0-4-16 0-36 0-56 56 0 114 0 170 0z" />
<glyph unicode="&#x61;" glyph-name="add-to-cart" d="M886 646c-26-6-36-36-52-62-26-52-46-98-76-144-10-16-30-62-46-66-20-6-52 0-78 0h-76c-52 0-112-6-144 10-40 20-46 88-56 138-4 42-14 82-26 118-14 82-20 168-66 216-16 14-36 24-62 30-36 16-106 26-122-10v-46c20-42 72-22 102-36 32-16 36-62 42-102 14-78 30-154 46-226 10-52 20-98 50-128 26-30 72-52 124-56 72-6 154 0 224 0 22 0 52-6 78 0 26 4 50 40 66 62 46 60 76 132 112 198 6 16 16 32 22 42 0 40-26 66-62 62zM532 548c10-10 32-42 46-36 10 0 16 10 26 16 36 36 72 72 102 106 6 12 36 36 32 52-6 26-62 10-92 16 0 50-6 96-12 148-20 20-86 20-106 0-6-46-6-98-10-148-36-6-94 14-98-16-6-16 20-40 30-52 26-30 52-56 82-86zM414 246c-46-6-92-66-56-124 42-66 170-40 154 58-6 36-40 70-98 66zM712 246c-42-6-72-36-72-78 0-46 40-86 88-80 34 0 76 30 76 80 4 48-36 82-92 78z" />
<glyph unicode="&#x62;" glyph-name="arrow-right-categproes" d="M728 532c0-14 0-26 0-40-6-16-16-20-26-32-78-76-154-152-230-224-6-6-12-10-16-16-10-10-16-16-32-20 0 0-4 0-4 0-16 4-26 16-42 26-10 10-24 20-30 36 0 0 0 4 0 4 0 10 10 16 16 26 50 52 102 102 154 154 10 10 20 20 24 26 10 10 16 20 22 34 4 16-6 32-12 42-10 10-20 20-30 26-50 50-102 102-154 154 6 10-4 14-4 20-10 20 0 30 10 36 10 10 16 14 26 24 10 6 14 12 30 16 0 0 6 0 6 0 14-4 20-10 24-20 78-76 150-148 226-220 6-6 10-10 16-16 14-16 26-20 26-36z" />
<glyph unicode="&#x63;" glyph-name="comment" d="M266 144c-4 0-10 0-16 0-24 4-50 0-60 20-10 30 14 56 30 72 20 14 46 36 56 50 6 10 10 22 10 36 0 16-20 32-30 42-36 40-56 92-62 158-14 98 26 164 72 216 46 50 108 92 184 112 82 20 184 10 252-20 66-32 122-78 158-138 36-62 56-150 26-242-26-72-72-128-128-164-62-40-134-66-236-60-10 0-30 4-40 4-6 0-16-10-22-14-56-42-112-62-194-72zM430 256c16 10 30 26 46 26 10 0 26 0 36-6 88-10 164 16 216 46 56 36 112 98 122 184 10 104-42 174-88 216-56 46-128 82-234 76-128 0-220-70-262-158-26-52-26-118-10-174 16-42 36-66 62-92 10-10 20-20 26-30 4-36-12-68-26-88-16-20-32-36-46-52 0 0-6 0-6-4 72 4 118 26 164 56z" />
<glyph unicode="&#x64;" glyph-name="compare" d="M390 706c92 6 198-4 302 0v-102c46 42 92 98 142 144-46 50-92 102-138 148 0-30 0-72 0-102-108-6-210 4-296 0-82 0-150-36-190-82-62-62-108-194-56-312 26 20 46 46 72 72-26 128 60 230 164 234zM886 620c-16-16-66-56-66-72 0-10 4-20 4-30 0-108-72-196-174-200-86-6-200 4-302 0v102c-46-46-98-98-144-148 42-42 88-88 128-128 6-6 12-16 16-16 0 30 0 72 0 102 108 6 210-4 298 0 76 6 138 42 184 88 60 56 106 184 56 302z" />
<glyph unicode="&#x65;" glyph-name="customers" d="M98 502c36 0 66 10 86 26 26 20 32 60 56 86 26 32 72 56 98 88 20 20 36 60 40 96 6 16 0 32 12 36 20 6 40-30 40-40 6-52-30-88-40-128-6-16-6-36 0-52 20-40 92-14 138-10 30 6 66 10 86 0 16-4 20-20 20-36h32c0 6 4 16 0 26-10 56-88 52-154 40-30-14-62-24-92-14-10 72 76 132 30 210-10 20-36 40-66 36-26-6-30-32-36-62-16-88-76-108-128-158-26-32-36-88-66-104-16-10-42-10-62-10v-14c6 0 0-12 6-16zM518 250c-52 0-108 0-154 6-102 10-164 62-266 56 0-4 0-16 0-20v-10c106 0 168-46 276-56 46-6 108-6 158-6 62 6 134 20 138 76h-30c-10-40-76-40-122-46zM446 368c-6-4-22-10-32-10s-14 0-24 6v-36c4 0 14 0 24 0 36 0 62 10 78 30 14 20 26 52 26 88 0 20-6 36-12 46-4 14-14 26-24 30-10 10-26 10-42 10-20 0-36-4-50-20-12-10-22-30-22-52 0-20 6-36 16-46s26-14 40-14c12 0 22 0 26 4 6 6 16 10 22 20 0-14-6-30-12-34-4-6-4-22-14-22zM466 440c-6-4-16-10-20-10-10 0-16 6-22 10-4 6-4 16-4 26s0 20 4 26c6 4 12 10 22 10s14-6 20-10c6-6 10-16 10-26s-4-20-10-26zM640 522c-10 6-26 10-40 10-22 0-36-4-52-20-10-10-20-30-20-52 0-20 4-36 14-46s26-14 42-14c10 0 20 0 26 4 4 6 14 10 20 20 0-14-6-30-10-34-6-6-10-16-20-22-12-4-16-10-26-10s-16 0-26 6v-36c4 0 16 0 26 0 36 0 60 10 76 30s26 52 26 88c0 20-6 36-10 46-6 14-16 26-26 30zM624 440c-4-4-14-10-20-10-10 0-16 6-20 10-6 6-6 16-6 26s0 20 6 26c4 4 10 10 20 10s16-6 20-10c6-6 10-16 10-26s-4-20-10-26zM916 436c-10 10-20 14-36 14-30 0-46-20-46-60 0-22 6-36 10-46 12-12 22-16 36-16 16 0 26 4 36 16 10 10 10 24 10 46 6 20 0 34-10 46zM880 354c-4 0-10 4-10 10 0 4-4 14-4 26 0 10 0 20 4 24 0 6 6 10 10 10 10 0 16-10 16-34 0-22-6-36-16-36zM778 424c10 12 10 26 10 48 0 20-4 34-10 46-4 10-20 14-36 14-30 0-46-20-46-60 0-22 6-36 10-48 6-10 22-14 36-14 16 0 26 4 36 14zM732 446c0 4-4 14-4 26 0 10 0 20 4 24 0 6 6 10 10 10 10 0 16-10 16-34 0-26-6-36-16-36-4 0-10 4-10 10zM850 532l-112-204h36l112 204z" />
<glyph unicode="&#x66;" glyph-name="dollar" d="M542 880c0-20 0-40 0-60 98-16 164-62 174-174-36 0-70 0-106 0-6 46-22 70-62 76-6-42 0-98 0-144 102-26 204-72 190-214-10-98-98-148-190-154 0-20 0-46 0-66-16 0-30 0-46 0 0 20 0 46 0 66-118 10-184 76-190 200 36 0 72 0 108 0 0-66 30-92 82-108 4 52 0 112 0 164-52 20-112 30-144 72-30 36-46 76-40 122 10 102 86 148 178 160 6 14 0 46 6 60 10 0 26 0 40 0zM430 630c10-26 42-36 66-42 0 42 0 88 0 128-50 6-86-36-66-86zM542 308c62 0 108 66 72 116-10 16-46 32-72 36 0-50 0-102 0-152z" />
<glyph unicode="&#x67;" glyph-name="favorites" d="M512 794c40 46 98 96 174 108 138 20 236-68 266-170 16-56 16-132-4-190-58-152-200-240-314-342-14-16-34-36-56-52-14-14-36-50-60-50-22 0-36 20-52 40-102 112-246 190-332 318-46 66-88 184-52 292 30 86 102 154 214 158 108 6 164-56 216-112zM788 450c42 42 88 98 98 170 10 86-26 154-82 184-20 10-56 20-92 20-46-4-88-36-112-56-12-10-26-26-42-40-16-16-20-36-46-36-20 0-36 20-46 36-16 14-30 30-42 40-30 26-66 56-116 56-98-4-160-72-164-164-6-66 20-118 50-158 82-118 230-200 318-308 82 92 184 164 276 256z" />
<glyph unicode="&#x68;" glyph-name="grid-view" d="M154 948c-72 0-128-58-128-128 0-72 56-128 128-128s128 56 128 128c0 70-56 128-128 128zM512 948c-72 0-128-58-128-128 0-72 56-128 128-128s128 56 128 128c0 70-56 128-128 128zM870 692c72 0 128 56 128 128 0 70-56 128-128 128s-128-58-128-128c0-72 56-128 128-128zM154 640c-72 0-128-56-128-128s56-128 128-128c72 0 128 56 128 128s-56 128-128 128zM512 640c-72 0-128-56-128-128s56-128 128-128c72 0 128 56 128 128s-56 128-128 128zM870 640c-72 0-128-56-128-128s56-128 128-128c72 0 128 56 128 128s-56 128-128 128zM154 332c-72 0-128-56-128-128 0-70 56-128 128-128s128 58 128 128c0 72-56 128-128 128zM512 332c-72 0-128-56-128-128 0-70 56-128 128-128s128 58 128 128c0 72-56 128-128 128zM870 332c-72 0-128-56-128-128 0-70 56-128 128-128s128 58 128 128c0 72-56 128-128 128z" />
<glyph unicode="&#x69;" glyph-name="list-view" d="M158 932c-66 0-122-56-122-124 0-66 56-122 122-122 68 0 124 56 124 122-6 72-56 124-124 124zM158 640c-66 0-122-56-122-122 0-68 56-124 122-124 68 0 124 56 124 124-6 70-56 122-124 122zM158 348c-66 0-122-56-122-122 0-68 56-124 122-124 68 0 124 56 124 124 0 66-56 122-124 122zM936 302h-536c-42 0-72-30-72-72 0-40 30-76 72-76h536c42 0 72 30 72 72 0 40-36 76-72 76zM936 594h-536c-42 0-72-30-72-72 0-40 30-72 72-72h536c42 0 72 32 72 72 0 42-36 72-72 72zM400 738h536c42 0 72 30 72 70 0 42-30 72-72 72h-536c-42 6-72-24-72-66 0-40 30-76 72-76z" />
<glyph unicode="&#x6a;" glyph-name="blog-likes" d="M588 922c6 0 16 0 22 0 56-16 96-118 70-194-14-42-46-68-56-98 32-10 68-6 104-6 34 0 76 0 102-10 50-20 86-102 46-148 30-36 20-92-10-118 24-40 0-86-26-108 36-118-134-122-226-132-14 0-30 0-46 0-82 10-144 36-224 40-22-26-62-20-108-20-26 0-56 0-72 6-36 14-30 56-30 112s0 112 0 168c0 26-6 62 0 82 10 42 50 36 102 36 26 0 50 0 72 0 14 0 24-10 30-14 52 34 46 92 76 142 10 20 26 36 42 52s36 26 46 46c16 20 20 46 26 72 14 36 10 86 60 92zM588 154c42 0 78 4 114 14 30 6 86 16 92 36 0 12-10 32-6 46 6 22 32 36 36 58 0 14-16 30-16 46 0 20 36 40 36 60 0 16-24 36-24 58 0 20 24 40 24 60 0 16-20 32-30 42-52 14-122 0-180 4-30 6-60 22-66 52-4 50 46 82 62 128 10 40-6 92-30 118 0 0 0 0-6 0 0 0-6 0-6-6-10-50-14-92-36-132-20-36-66-62-92-104-14-20-20-50-30-76s-26-46-40-66c-12-10-36-20-36-32-6-14 0-46 0-66 0-66 0-132 0-194 86-6 142-46 234-46zM184 174c42 0 78 0 118 0 0 98 0 200 0 298-40 0-76 0-118 0 0-98 0-196 0-298z" />
<glyph unicode="&#x6b;" glyph-name="phone" d="M820 322c0 0 0-4 0 0 0-20-12-30-22-40-24-26-46-46-76-62-42-20-102-20-148 0-82 30-144 98-196 164-24 36-50 72-70 108-22 40-42 86-46 138-16 98 20 164 66 204 16 16 26 36 50 36 32 0 58-46 68-66 14-20 36-56 36-92-6-52-62-62-78-102-4-16 0-36 6-52 4-20 20-40 30-62 26-36 52-72 88-96 14-10 36-32 60-26 22 4 32 20 42 36 16 10 26 26 40 30 36 10 68-20 88-40 26-22 56-42 62-78z" />
<glyph unicode="&#x6c;" glyph-name="returning" d="M552 870c0 16 12 42-4 46h-52c-256-14-460-286-348-568 10-26 26-46 32-72-36 0-82 46-108 10 10-30 50-36 82-46 30-10 72-14 96-30-4 20 46 190 12 200-42 10-26-78-36-114-16-10-16 16-22 26-142 252 58 594 348 548zM640 896c-16 0-20 10-40 6 0-12-6-26-6-36 10-6 26-6 36-10 4 14 10 30 10 40zM716 860c-10 6-20 16-36 20-4-14-10-24-14-36 10-4 20-14 36-14 4 10 14 14 14 30zM784 798c0-66-36-142-10-198 46 4 24 76 34 116 180-234-14-628-326-578 0-16-6-20-6-40 262-10 466 168 440 450-4 72-40 132-60 184 24 0 102-52 106-4 6 34-164 56-178 70zM318 148c10-4 26-10 36-20 0 16 10 20 14 36-10 4-20 16-36 16 0-16-14-16-14-32zM394 112c16 0 20-10 42-10 0 10 4 26 4 36-10 6-26 6-36 10 0-10-10-20-10-36z" />
<glyph unicode="&#x6d;" glyph-name="search" d="M912 138l-170 170c56 66 88 148 88 240 0 204-160 368-358 368-200 0-360-164-360-368s160-368 360-368c76 0 152 24 208 70l176-174zM154 548c0 180 142 322 318 322 174 0 316-142 316-322s-142-322-316-322c-176 0-318 142-318 322z" />
<glyph unicode="&#x6e;" glyph-name="shopping-bag" d="M834 722h-142v36c0 102-82 184-186 184-102 0-188-82-188-184v-184h72v72h148v76h-144v36c0 62 46 108 112 108 62 0 108-46 108-108v-184h72v72h82l36-512h-594l30 512h6v76h-72l-46-660h742z" />
<glyph unicode="&#x6f;" glyph-name="support" d="M496 890c10 0 22 0 36 0 154-20 246-106 272-256 10-10 26-20 30-34 52-16 72-62 82-118 0-10 0-26 0-36-10-56-30-102-82-118-10-10-20-26-30-32-10-76-52-122-128-132-16 0-42 4-62 0-14-6-26-36-46-30-30 0-56 0-86 0-52 4-62 82-10 96 14 6 92 6 106 0 16-4 26-20 32-30 66-6 118 4 142 40 6 10 22 42 16 56-6 12-20 16-30 32-10 26-6 92-6 138 0 20 0 46 0 72 0 46 0 82 30 92-10 72-40 128-86 164-46 40-108 66-190 62-128-6-210-98-230-226 46-16 30-92 30-170 0-70 16-178-56-168-20 0-30 20-40 36-52 16-72 62-82 118 0 10 0 26 0 36 10 56 30 102 82 118 10 14 26 24 36 34 24 150 118 236 270 256zM226 600c-6-62-6-140-6-206 0-20-4-46 6-66 10 0 10 0 20 0 16 16 10 40 10 62 0 66 0 142-6 204-4 10-20 10-24 6zM774 600c-6-62-6-140-6-206 0-20-6-46 6-66 10 0 10 0 20 0 10 16 4 40 4 62 0 66 0 142-4 204 0 10-16 10-20 6zM190 364c0 66 0 138 0 204-62-30-62-178 0-204zM834 364c62 26 62 178 0 204 0-72-4-144 0-204zM466 168c26-4 82-10 108 0 4 6 4 16 0 26-26 0-134 22-108-26z" />
<glyph unicode="&#x70;" glyph-name="tag" d="M916 784c0 24 6 60-4 82-10 20-26 30-52 36h-292c-40 0-56-32-86-58-104-102-210-210-318-316-20-22-52-42-56-78v-4c0-26 20-42 36-52 92-92 174-174 266-266 20-20 30-36 56-36 30 0 52 26 66 46 114 112 220 220 328 334 20 20 42 34 52 60 4 20 4 52 4 82zM880 542c-4-20-30-40-50-56-114-112-220-220-338-338-10-10-20-20-32-26-14 0-36 26-46 36-82 82-158 160-240 242-10 10-36 30-36 46 0 10 16 20 26 30 118 118 226 226 342 344 16 14 36 46 62 46 42 4 108 0 160 0h76c20 4 56 4 66 0 16-10 10-46 10-72v-164c0-36 6-62 0-88zM748 814c-32-6-56-26-62-62-6-46 26-76 66-76 32 0 78 20 78 72 0 40-36 72-82 66zM728 732c-12 26 4 46 30 52 16 0 30-10 36-26 10-56-56-56-66-26z" />
<glyph unicode="&#x71;" glyph-name="thing-arrow-right" d="M670 518c0 0 0 4 0 4s0 0 0 6c0 4 0 4 0 10l-174 352c-10 16-24 22-40 16-10-10-16-30-10-46l164-338-164-338c-6-16 0-36 10-40 16-10 30 0 36 14l174 354c4 0 4 6 4 6z" />
<glyph unicode="&#x72;" glyph-name="user" d="M876 148c0-4 0-4 0 0-26-4-46-4-72-4 0 86-36 148-76 194-42 46-108 82-190 86-88 6-160-24-206-70-56-52-96-114-102-216-26 0-46 0-72 0 0 0 0 0 0 6 10 168 98 266 220 322-92 56-148 194-92 312 36 78 118 144 232 144 112 0 188-66 224-144 20-46 32-98 20-154-14-66-56-122-106-158 122-56 204-154 220-318zM338 706c-16-86 30-148 66-178 56-42 138-42 200-6 56 30 98 92 88 174-6 42-26 78-52 102-36 36-82 62-154 52-76-10-138-66-148-144z" />
<glyph unicode="&#x73;" glyph-name="category-icon" d="M76 200h104v102h-104zM282 814v-102h666v102zM282 456h666v102h-666zM282 200h666v102h-666zM76 456h104v102h-104zM76 712h104v102h-104z" />
<glyph unicode="&#x74;" glyph-name="mail" d="M972 640c0 40 6 102-4 138-10 30-46 52-82 56h-742c-52-4-72-26-82-56-16-40-10-98-10-138v-276c0-46-6-102 4-134 20-62 72-62 160-62h592c36 0 72-4 98 6 26 6 52 26 62 46 16 30 4 92 4 138zM880 250h-736v492c0 0 0 6 0 6h732v-498zM794 614c10 6 36 20 36 26 10 26-6 56 0 76-102-50-210-116-318-178-108 62-216 122-322 184v-82c106-62 214-122 322-184 88 50 190 108 282 158z" />
<glyph unicode="&#x75;" glyph-name="map-pointer" d="M528 896h-32c-86-10-148-36-200-88-46-46-86-116-80-204 4-112 60-194 112-272 56-76 112-148 178-204 108 108 232 230 278 394 72 210-72 358-256 374zM752 594c-4-92-56-164-96-220-32-46-68-88-108-134-10-10-30-40-36-40s-30 30-40 40c-62 72-118 144-164 236-26 52-52 128-32 204 26 88 102 160 220 170 72 6 134-20 174-56 52-46 92-108 82-200zM496 742c-46-10-82-30-96-62-6-10-22-50-22-76 6-118 170-158 242-72 36 42 40 114 10 154-26 30-72 62-134 56zM472 548c-22 10-42 40-42 66 0 46 36 72 66 78 52 10 98-26 98-78 0-72-76-92-122-66z" />
<glyph unicode="&#x76;" glyph-name="newsletter" d="M686 98c-6 0-6 0 0 0-26 10-40 30-56 50-56 56-112 108-170 160-36-42-70-82-106-128-6-6-26-42-46-36-16 4-12 30-6 50 6 62 10 124 20 180-56 20-112 36-178 56-16 6-52 10-52 30 0 16 30 26 42 36 234 128 466 252 696 380 10 4 40 26 56 20 10-6 0-36 0-52-62-240-118-470-174-706-10-10-16-40-26-40zM144 472c46-16 92-32 138-48 14-4 40-14 50-14 6 0 16 14 26 20 118 92 220 180 338 272 16 10 42 40 56 40 26-4 6-30 0-40-92-124-178-246-266-370 62-56 124-116 180-174 4-4 4-10 10-10 56 236 118 472 174 702-236-128-472-250-706-378zM390 414c-12-10-36-24-36-36-6-10-6-30-6-40-4-46-10-82-16-128 124 122 226 282 328 420-86-66-184-144-270-216z" />
<glyph unicode="&#x77;" glyph-name="close-remove" d="M896 200l-312 312 306 312-60 62-312-308-308 308-66-62 312-312-312-312 66-62 308 308 312-308z" />
<glyph unicode="&#x78;" glyph-name="payment" d="M256 558c0-30 0-56 20-62 16-4 42 0 68 0h398c36 0 72-4 82 22 10 20 6 66 6 92v178c0 46 10 108-36 114h-508c-40-6-30-68-30-114zM286 860c0 6 0 6 0 0l508 6v-338h-508zM634 830c-20 10-56 4-82 4-30 0-66 0-92 0-14-4-36-14-36-40-4-56 68-46 118-46 32 0 68-6 92 0 32 10 36 66 0 82zM588 778h-46c-30 0-66-4-86 6 0 4 0 10 4 14h128c12 0 32 6 36-4 6-16-20-16-36-16zM824 374c-4 40-62 40-96 26-6 0-6 10-12 10-14 20-56 14-86 4s-66-36-98-56c-10-4-26-20-30-20-10 0-36 10-46 16-16 10-32 30-42 40-24 20-60 30-106 30-52 0-88-14-128-34-16-6-36-16-58-26-10-6-46-16-40-36s26-6 46 0c20 10 26 10 46 20 30 16 62 30 92 42 36 10 92 0 112-12 32-14 36-34 62-50 42-26 102-32 164-36 20 0 42-6 42-26 0-26-36-26-72-26-56 0-108 0-154 10-20 6-46 12-46-10 0-14 26-20 40-24 46-12 138-16 190-12 30 0 42 12 62 26 30 20 62 42 92 62 26 20 62 52 102 56 16 6 30 0 36-16 0-14-20-36-36-40-86-62-180-124-272-180-20-10-36-24-60-30-32 0-52 10-72 20-42 20-78 42-118 62-20 10-46 30-76 26-22-6-32-16-52-26-6 0-36-10-30-30 0-32 40 0 50 4 10 6 26 20 42 20 20 0 50-20 72-30 24-10 40-20 66-36 40-20 92-56 154-30 30 14 66 36 92 56 60 40 118 76 178 118 36 20 82 46 88 92v10c4 52-62 62-98 36zM634 338c-4-6-14-16-20-16-14-4-36 6-56 6 36 16 72 56 112 62 10 0 26 0 26-12-10-10-36-24-62-40zM762 338c-30-20-60-46-92-62-4 10-10 20-20 32 20 14 42 30 62 46 20 14 46 30 76 20 10-20-14-26-26-36z" />
<glyph unicode="&#x79;" glyph-name="arrow-down-search" d="M850 640l-42 46c-10 16-30 16-46 0l-250-230-250 236c-16 10-32 10-46 0l-42-46c-10-16-10-36 0-46l292-282 16-22c10-14 30-14 46 0l312 298c20 10 20 30 10 46z" />
<glyph unicode="&#x7a;" glyph-name="list-view-small" d="M932 272h-820c-40 0-76-36-76-78 0-40 36-76 76-76h820c40 0 76 36 76 76 0 42-36 78-76 78zM112 732h820c40 0 76 36 76 76 0 42-36 78-76 78h-820c-40 0-76-36-76-78 0-40 30-76 76-76zM932 680h-820c-40 0-76-34-76-76 0-40 36-76 76-76h820c40 0 76 36 76 76 0 42-36 76-76 76zM932 476h-820c-40 0-76-36-76-76 0-42 36-78 76-78h820c40 0 76 36 76 78 0 40-36 76-76 76z" />
<glyph unicode="&#xe900;" glyph-name="cameras" horiz-adv-x="1028" d="M337.633-45.013c-7.673 1.918-15.346 3.453-23.019 5.563-52.176 15.346-88.238 63.301-88.238 117.587 0 78.264 0 156.527 0 234.983 0 3.453 0 6.905 0 12.085-3.837 0-7.097 0-10.358 0-31.076 0-61.959 0-93.034 0-60.808 0-113.176 45.846-121.040 106.27-0.959 7.864-1.727 15.922-1.727 23.786-0.192 92.459-0.384 184.726 0 277.184 0.384 53.327 26.28 91.308 74.043 113.943 5.947 2.878 8.632 5.563 8.44 12.468-0.192 12.085 8.44 20.333 20.525 20.525 33.952 0.192 67.714 0.192 101.666 0 13.044 0 19.375-8.248 21.484-20.908 21.484 0 42.585-0.192 63.493 0.384 2.494 0 5.563 4.22 7.097 7.097 6.713 13.236 11.509 27.814 19.758 39.899 15.73 22.827 37.789 35.103 66.371 34.911 57.164-0.384 114.518-1.535 171.682 0.384 47.38 1.535 76.154-28.774 86.895-60.040 5.371-15.346 11.317-22.635 30.308-24.17 45.079-3.453 82.1-25.896 109.339-62.726 13.619-18.415 19.95-39.707 19.95-62.534 0-50.833 0-101.666 0-152.5 0-6.331 0.767-9.591 8.44-11.701 29.541-8.056 48.723-28.582 58.315-56.972 5.371-16.113 12.852-21.676 30.884-23.594 50.449-5.371 91.116-30.116 116.053-75.578 7.289-13.236 8.824-29.349 13.044-44.12 0-96.487 0-193.166 0-289.653-0.576-3.069-1.343-6.139-1.727-9.207-5.371-51.6-32.994-86.513-80.566-105.694-9.207-3.645-19.375-5.371-28.965-7.864-192.975 0.192-386.14 0.192-579.115 0.192zM350.102 468.882c-3.069-14.962-7.289-19.95-18.991-22.827-39.707-10.166-64.452-41.818-64.452-82.868 0-93.993 0-187.987 0-281.98 0-49.49 36.254-85.937 85.745-85.937 183.191 0 366.383 0 549.382 0.192 7.481 0 15.346 1.151 22.635 3.069 39.132 10.358 62.342 41.626 62.534 85.362 0.384 92.075 0 184.15 0.192 276.225 0 19.183-5.563 36.254-19.566 49.298-10.742 10.166-23.019 19.183-35.679 26.663-18.607 10.934-39.516 13.044-60.999 12.277-18.224-0.576-22.827 3.069-29.157 19.758-3.645 9.783-7.289 19.566-11.317 29.349-8.632 21.1-26.28 32.994-48.723 32.994-37.022 0-74.235 0.192-111.258 0-6.905 0-13.811-1.727-20.716-1.727-10.742 0.192-21.484 1.535-32.227 1.727-24.937 0.192-42.201-11.701-51.217-34.911-4.029-10.358-8.056-20.716-11.701-31.268-3.453-10.358-10.742-15.73-21.484-15.922-33.186-0.192-66.563-0.384-99.749 0-10.358 0.192-18.224 4.796-21.292 15.73-0.576 1.918-3.645 4.604-5.563 4.604-18.799 0.384-37.789 0.192-56.396 0.192zM677.928 570.74c24.937 0 49.298 0.192 73.469-0.192 7.481-0.192 9.783 1.918 9.783 9.591-0.384 48.339-0.959 96.487 0 144.826 0.576 30.116-12.66 51.792-35.679 69.057-24.745 18.607-52.751 25.896-83.443 24.17-14.962-0.767-20.716 3.837-25.896 17.456-4.029 10.742-7.864 21.484-12.085 32.035-8.632 21.1-26.28 32.61-48.915 32.61-54.67 0-109.339 0-164.009 0-24.361 0-41.434-11.509-50.641-34.528-4.029-10.358-7.864-20.716-11.893-31.076-4.988-12.66-10.742-16.689-24.553-16.881-30.308 0-60.808 0-91.116 0-18.032 0-22.827 3.453-28.774 20.333-20.141 0-40.475 0-60.808 0-2.302-15.154-5.755-18.799-20.716-22.827-36.062-9.591-61.959-41.818-62.15-79.031-0.384-96.487-0.576-192.975 0-289.461 0.192-45.462 37.597-81.525 83.060-81.717 31.268-0.192 62.726 0 93.993 0 2.686 0 5.563 0.384 8.248 0.576 2.878 52.751 29.157 89.006 75.002 111.45-47.955 85.937-48.147 169.955 15.538 246.493 55.821 66.754 130.631 90.157 213.691 64.069 103.776-32.227 149.814-108.956 147.896-216.952zM486.104 488.639c0 0.192 0 0.576 0 0.767 11.126 0 24.553-3.837 32.802 1.151 7.481 4.604 9.399 18.607 13.619 28.39 0.192 0.576 0.576 1.151 0.767 1.727 12.66 25.129 31.268 43.544 59.657 49.106 11.701 2.302 24.17 1.151 36.254 1.151 4.988 0 7.864 1.343 7.673 6.905-0.767 13.428 0.192 26.855-1.918 40.091-14.962 92.075-99.557 152.308-190.864 136.77-108.572-18.415-168.996-140.414-118.163-238.052 2.878-5.755 6.521-7.289 12.66-7.289 30.308 0.384 60.808 0.576 91.116-0.192 6.331-0.192 17.073-4.604 18.032-8.824 3.453-14.003 12.852-11.317 22.059-11.317 5.371-0.384 10.742-0.384 16.305-0.384zM698.836 426.872c111.833 1.343 205.059-92.459 205.059-204.676 0-107.229-85.745-204.292-204.676-205.443-112.601-0.959-206.402 92.842-205.635 205.635 0.767 119.122 98.214 205.827 205.251 204.484zM699.028 386.59c-84.786 1.535-164.201-66.754-165.16-164.201-0.959-90.348 74.043-165.16 164.585-165.352 90.924-0.192 164.776 73.661 164.776 164.776 0 91.691-72.701 164.776-164.201 164.776zM389.617 376.615c0.192-17.648-12.277-30.5-29.541-30.5-17.648-0.192-30.308 12.277-30.5 29.733s12.468 30.5 29.541 30.884c17.073 0.192 30.5-13.044 30.5-30.116zM133.917 776.183c17.264-0.192 30.308-13.236 30.116-30.308s-13.428-29.925-30.692-29.733c-17.456 0-29.925 12.852-29.733 30.308 0 17.264 12.66 29.733 30.308 29.733z" />
<glyph unicode="&#xe901;" glyph-name="drone" horiz-adv-x="1489" d="M1198.895 935.834c22.574-11.705 25.918-19.508 20.065-45.983-14.213-64.098-28.147-127.916-42.361-192.014-12.262-55.458-59.36-93.638-115.654-93.638-45.426 0-90.851 0-137.113 0 0-20.344 0-39.573 0-59.36 18.672-2.509 37.901-4.181 56.573-7.803 105.622-20.065 192.014-111.195 207.341-218.489 1.672-11.426 2.787-23.131 3.066-34.556 0.278-81.654 0.278-163.309 0.278-245.243 0-18.672-8.64-29.819-24.246-31.77-18.95-2.509-32.884 9.197-34.278 29.262-0.557 9.197 0 18.393 0 29.262-39.573 0-78.31 0-118.162 0 0 20.065 0 39.015 0 58.802 38.737 0 77.195 0 116.769 0 0.557 4.459 1.394 7.803 1.394 11.426 0 50.721 0.557 101.163-0.278 151.883-1.672 95.31-79.704 181.981-174.457 193.964-4.459 0.557-9.197 1.951-13.656 2.229-23.409 1.394-44.311 1.951-61.868-21.18-19.508-25.918-50.442-36.786-83.605-37.065-34.836-0.557-69.671-0.278-104.507-0.278-42.361 0.278-75.245 19.23-101.72 51.278-2.787 3.344-7.525 7.246-11.705 7.525-98.097 7.803-186.998-52.114-215.423-146.309-5.574-18.393-8.918-38.18-9.197-57.13-1.394-48.212-0.557-96.704-0.278-144.916 0-3.066 0.557-6.131 1.115-10.869 39.295 0 78.032 0 117.605 0 0-19.787 0-38.18 0-57.967-39.015 0-77.753 0-118.719 0 0-11.426 0.278-21.459 0-31.492-0.557-16.721-10.59-27.311-26.196-28.426-15.885-1.115-27.59 7.525-30.934 23.688-1.115 5.295-1.115 11.147-1.115 16.443 0 74.688 0 149.653 0 224.341 0.278 134.326 87.507 241.062 219.325 267.537 15.885 3.066 32.049 3.344 49.327 5.016 0 18.95 0 38.458 0 59.917-11.984 0-23.409 0-34.836 0-32.606 0-64.933 0-97.54 0-63.54 0-109.523 37.343-122.621 99.212-8.918 42.361-19.23 84.72-27.311 127.359-2.229 11.426-6.968 12.819-16.721 12.819-83.048-0.278-166.096-0.278-249.422-0.278-5.574 0-11.147 0-17.836 0 0 19.23 0 38.18 0 58.245 88.622 0 177.523 0 266.144 0 8.64 26.475 22.852 35.671 41.246 28.705 12.262-4.738 17.278-14.771 19.787-26.475 13.377-59.36 26.196-118.998 39.852-178.358 2.787-11.984 6.131-24.524 12.262-35.114 10.59-18.393 28.426-27.59 49.884-27.59 210.686 0 421.651 0 632.336 0 25.918 0 49.327 15.049 56.015 39.852 11.984 45.983 21.459 92.245 32.606 140.457-85.557 0-169.162 0-253.882 0 0 20.065 0 38.458 0 58.245 88.622 0 176.965 0 258.899 0 12.819 14.213 21.737 24.246 30.655 34.556 3.902 0.278 8.64 0.278 13.099 0.278zM624.804 603.921c0-17.836-0.278-34.556 0-51.278 0.278-36.786 29.819-67.442 66.605-68.277 34.836-0.837 69.671-1.394 104.507 0.278 13.099 0.557 27.311 5.853 38.458 13.099 28.426 18.393 39.852 65.212 27.59 106.179-78.032 0-156.621 0-237.16 0zM743.245-82.203c-57.13 0-114.26 1.115-171.392-0.278-39.573-0.837-66.885 26.196-66.605 66.605 0.557 64.655 0 129.031 0.278 193.686 0 43.196 24.524 68.835 67.163 66.605 23.131-1.115 37.622 5.295 45.983 26.475 2.229 5.574 6.41 10.312 9.197 15.606 6.968 12.819 17 17.836 31.77 17.836 56.295-0.557 112.31-0.557 168.605 0 15.885 0.278 26.753-5.574 33.721-19.508 0.278-0.278 0.278-0.837 0.557-1.394 11.705-28.705 29.54-43.196 63.819-39.295 30.098 3.344 55.458-25.918 55.458-57.13 0.278-68.835-0.837-137.391 0.557-206.226 0.837-33.999-25.081-63.819-63.54-62.983-58.524 0.837-117.047 0-175.571 0zM564.608-23.121c119.834 0 238.832 0 357.831 0 0 70.507 0 139.621 0 209.571-17.836 0-34.556 0-51.278 0-11.705 0-20.344 4.738-26.475 14.771-6.968 11.984-13.934 24.246-22.016 35.393-3.066 4.181-9.754 8.36-15.049 8.36-29.262 0.837-58.524 0.557-87.786 0.278-16.164 0-35.114 4.459-47.934-2.229-11.984-6.41-17.278-25.081-25.639-38.458-0.278-0.278-0.557-0.837-0.837-1.115-6.968-11.705-16.721-17.557-30.934-17.278-16.443 0.557-33.164 0-50.164 0 0.278-70.229 0.278-138.785 0.278-209.292zM1489.006 901.835c0-19.787 0-37.901 0-56.852-77.753 0-155.506 0-235.21 0 3.623 17 6.968 34.278 11.426 51.278 0.557 2.509 5.295 5.295 7.803 5.295 71.343 0.278 142.687 0.278 215.981 0.278zM593.87 900.998c0-19.23 0-37.343 0-56.295-68.835 0-137.391 0-207.341 0-3.902 17.836-8.082 36.508-12.541 56.295 73.573 0 146.031 0 219.882 0zM743.523 7.534c-50.442 0.278-88.344 39.573-88.064 91.13 0.278 47.377 40.687 86.392 88.901 86.392 49.049 0 89.736-40.687 89.179-89.458 0-49.327-40.13-88.344-90.016-88.064z" />
<glyph unicode="&#xe902;" glyph-name="gamepad" horiz-adv-x="1028" d="M121.021-77.385c-12.28 2.879-25.136 4.221-36.84 9.018-40.293 16.693-61.976 49.503-74.447 89.605-11.32 36.264-11.32 73.68-7.291 110.903 10.745 99.198 44.131 191.105 93.442 277.449 27.438 47.968 59.289 92.483 100.926 129.131 23.6 20.722 49.311 38.183 81.354 41.445 31.084 3.070 61.783-2.302 90.756-14.007 19.38-7.866 38.183-17.46 56.987-26.67 21.49-10.553 43.939-17.844 69.075-19.763 1.535 12.28 2.879 24.177 4.797 36.072 13.432 78.477 57.37 135.27 124.909 175.373 42.020 24.944 87.878 42.020 132.777 60.824 33.002 13.815 66.004 27.246 94.209 49.887 21.298 17.077 32.235 38.95 32.618 66.196 0.192 14.199 7.675 22.641 20.339 22.641 12.28 0 20.339-8.635 19.955-22.833-1.151-45.665-23.216-79.819-59.289-105.914-33.386-24.177-71.76-38.566-109.559-53.725-43.363-17.46-86.727-34.92-125.868-61.591-54.492-37.032-85.576-87.878-92.675-153.499-0.192-2.302-0.192-4.413-0.192-6.715 0-1.535 0.192-3.070 0.576-7.675 16.501 4.605 32.427 7.483 47.009 13.623 22.065 9.018 42.98 20.722 64.853 30.316 29.933 13.239 61.399 19.188 94.017 18.036 30.7-1.151 56.027-16.117 79.052-34.92 49.311-40.678 85.192-92.099 115.699-147.358 39.334-71.185 67.54-146.591 81.354-226.986 4.030-22.833 4.797-46.242 6.907-69.458 0.384-3.454 0.959-6.907 1.535-10.361 0-1.918 0-3.838 0-5.756-0.576-4.413-0.959-8.827-1.727-13.047-3.838-20.531-5.564-41.637-12.28-61.207-13.623-39.909-38.758-70.609-80.97-83.272-8.443-2.494-17.268-3.646-25.903-5.372-1.918 0-3.838 0-5.756 0-2.879 0.576-5.564 1.343-8.443 1.343-45.090 1.151-86.918 14.007-126.829 34.345-42.020 21.49-78.668 50.846-115.507 79.628-27.438 21.49-54.492 43.171-86.343 58.138-25.328 11.896-51.422 16.501-78.86 8.635-24.752-7.099-46.817-20.147-67.348-35.305-36.648-27.054-72.336-55.643-109.367-82.121-41.637-29.741-87.11-51.422-138.149-59.481-14.774-2.302-29.548-3.454-44.322-5.181-1.343-0.384-3.262-0.384-5.181-0.384zM986.944 104.126c-1.535 12.855-2.879 37.032-7.099 60.824-13.047 72.912-38.375 141.602-73.488 206.839-24.368 45.473-52.957 87.878-89.030 125.101-35.497 36.456-76.365 54.3-126.829 37.415-21.873-7.291-42.98-17.46-63.894-27.63-29.164-14.391-59.289-24.944-91.715-27.438-47.201-3.454-91.907 5.564-133.928 27.821-15.734 8.251-31.851 16.501-48.352 22.641-47.009 17.46-90.756 14.966-129.514-21.298-25.136-23.6-47.201-49.311-66.004-78.093-65.237-99.006-107.449-206.263-115.699-325.416-2.687-39.526 2.302-77.9 26.287-111.287 13.815-19.38 32.81-31.084 56.987-29.164 22.833 1.727 45.858 4.030 67.732 9.786 50.079 12.855 91.14 42.788 131.625 73.68 32.235 24.56 63.702 50.27 97.663 72.144 59.864 38.758 121.84 38.95 182.855 1.535 22.833-14.007 44.131-30.316 65.429-46.626 35.881-27.63 70.609-56.795 110.711-78.477 37.415-20.147 76.941-31.659 119.537-32.427 25.328-0.384 45.282 8.635 60.056 29.164 21.682 29.548 26.862 63.894 26.67 110.903zM308.096 252.637c0-20.531 0-40.293 0-60.632-20.531 0-39.909 0-60.44 0 0 19.763 0 39.526 0 60.248-20.722 0-40.678 0-61.207 0 0 20.722 0 40.486 0 61.207 19.955 0 39.909 0 60.632 0 0 20.914 0 40.486 0 61.015 20.339 0 39.717 0 60.248 0 0-19.955 0-39.526 0-60.44 20.914 0 40.869 0 61.591 0 0-20.914 0-40.678 0-61.399-19.955 0-39.909 0-60.824 0zM678.604 231.531c-21.873-0.192-41.061 18.996-41.061 40.869-0.192 21.682 19.188 41.061 41.061 41.061s41.061-19.188 41.061-41.061c-0.192-21.682-19.188-40.678-41.061-40.869zM883.524 272.208c-0.384-22.449-18.996-41.061-41.061-40.678-22.257 0.384-40.486 18.996-40.293 41.445 0.192 22.065 19.38 41.061 41.061 40.678 22.257-0.384 40.486-19.188 40.293-41.445zM760.725 231.339c21.873 0 41.061-19.188 40.869-41.061s-19.38-41.061-41.253-40.869c-21.873 0.192-40.869 19.38-40.869 41.253 0.384 21.682 19.38 40.869 41.253 40.678zM761.109 314.036c-22.257-0.192-41.061 18.228-41.445 40.486-0.384 21.873 18.419 40.869 40.678 41.061 22.065 0.384 41.061-18.228 41.253-40.486 0.384-22.065-18.419-41.061-40.486-41.061z" />
<glyph unicode="&#xe903;" glyph-name="headphones" horiz-adv-x="1028" d="M1028.002 259.678c-1.917-15.341-2.877-31.065-5.945-46.214-9.012-43.721-26.846-82.456-65.198-108.152-9.588-6.328-22.628-7.862-31.448-14.957-8.821-6.903-13.232-18.984-21.477-26.846-18.6-17.45-40.844-21.669-64.43-11.313-23.778 10.355-37.201 29.339-37.393 55.226-0.576 103.167-0.384 206.332 0 309.691 0 23.586 11.697 41.228 32.408 52.733 4.602 2.493 6.328 5.178 5.561 10.355-8.629 59.062-30.106 112.946-67.499 159.927-54.076 67.882-123.876 109.878-210.359 122.342-96.454 13.998-182.938-10.163-257.915-72.101-62.705-51.775-100.674-118.89-114.096-199.429-0.384-2.493-1.151-4.986-1.534-7.479-0.959-6.328-0.192-10.739 6.711-14.574 20.709-11.313 30.873-30.298 30.873-53.501 0.384-101.632 0.384-203.264 0-304.897 0-26.079-12.081-46.022-36.050-57.335-23.394-10.931-45.446-6.903-65.006 9.396-4.602 3.835-9.588 8.438-11.505 13.806-4.218 11.697-13.040 15.149-23.394 19.176-36.434 14.574-59.062 43.145-72.485 78.621-27.805 73.252-24.353 144.969 19.368 212.277 14.957 23.012 36.242 38.927 63.089 46.981 3.26 0.959 6.903 4.218 8.438 7.479 6.711 13.806 16.491 24.545 30.298 30.489 6.136 2.685 7.862 6.519 8.629 12.273 17.642 149.571 130.204 280.735 287.063 313.909 117.74 25.121 224.55-1.534 317.36-78.813 68.65-57.145 110.070-131.163 125.602-218.988 2.877-15.916 5.945-27.614 21.86-35.475 8.438-4.218 13.040-15.725 19.559-23.97 1.726-2.301 3.835-5.369 6.328-5.945 45.255-13.614 70.567-46.981 87.058-88.784 9.396-23.97 13.806-48.899 14.19-74.594 0-1.726 0.959-3.644 1.342-5.369 0-2.109 0-4.027 0-5.945zM884.182 262.747c0 50.049 0 100.29 0 150.339 0 12.273-4.986 20.135-14.574 23.012-15.149 4.794-27.422-5.561-27.422-23.202 0-74.977 0-150.147 0-225.124 0-25.503 0-51.008 0-76.703 0-8.438 2.493-15.725 9.972-20.327 7.095-4.41 14.382-4.602 21.669-0.384 7.671 4.41 10.547 11.505 10.547 20.135-0.192 50.624-0.192 101.44-0.192 152.256zM144.186 262.363c0-50.432-0.192-100.866 0.192-151.298 0-5.369 1.534-11.505 4.602-15.916 5.178-7.287 13.040-9.972 22.052-6.711 9.972 3.452 14.957 10.547 14.957 23.012 0 100.482 0.192 201.155 0 301.636 0 14.382-9.204 24.929-21.285 24.353-12.464-0.767-20.901-9.588-20.709-24.545 0.576-50.24 0.192-100.29 0.192-150.53zM102.958 133.309c0 86.483 0 171.815 0 258.299-14.765-6.136-24.737-16.299-32.982-27.996-38.352-54.46-38.735-145.737-1.151-200.771 8.629-12.656 18.984-23.012 34.133-29.531zM925.028 132.926c3.835 2.109 6.903 3.644 9.78 5.369 16.683 11.122 27.614 26.846 36.050 44.872 15.149 33.174 18.408 68.074 14.765 103.741-3.068 29.147-11.697 56.761-30.106 80.155-7.862 10.163-16.875 19.368-30.298 23.778-0.192-86.292-0.192-171.432-0.192-257.915z" />
<glyph unicode="&#xe904;" glyph-name="laptop" horiz-adv-x="1123" d="M1123.004 42.313c0-25.565 0-50.913 0-76.478-0.656-1.53-1.53-3.277-1.967-4.807-4.807-22.506-21.851-36.709-44.794-36.709-343.276 0-686.552 0-1029.827 0-24.036 0-45.45 16.825-45.45 40.642 0 32.776-4.807 65.553 6.992 98.765 22.288 62.274 39.987 126.079 60.090 189.228 4.151 12.673 9.177 24.692 2.622 38.020-1.53 3.277-0.656 7.866-0.656 11.799 0 191.849 0 383.7 0 575.549 0 32.12 18.573 50.693 50.693 50.693 293.893 0 587.568 0 881.46 0 4.371 0 8.74 0 12.892-1.092 24.692-5.463 37.146-22.506 37.146-50.257 0-186.824 0.218-373.43-0.218-560.254 0-13.547-3.059-27.095-4.589-40.642-0.218-1.967 0.218-4.151 0.874-6.118 7.43-23.38 14.64-46.98 22.288-70.36 17.481-52.442 35.179-105.321 52.442-157.981zM116.557 883.131c0-195.564 0-390.255 0-585.82 5.025 0 9.177 0 13.547 0 69.486 0.218 138.971 0.437 208.457 0.437 218.29 0 436.797-0.218 655.086-0.656 10.27 0 13.547 2.403 13.547 13.111-0.437 187.042-0.218 374.086-0.218 561.346 0 3.933-0.218 7.648-0.437 11.799-297.17-0.218-593.030-0.218-889.982-0.218zM1070.999 62.634c-19.447 62.274-38.239 122.801-57.686 183.328-0.874 2.622-6.337 5.463-9.614 5.463-25.128 0.437-50.257 0.218-75.385 0.218-2.841 0-5.463-0.656-9.396-1.092 5.025-20.539 9.614-40.206 14.422-59.871 5.244-21.414-3.715-32.995-25.347-32.995-230.745 0-461.707 0.218-692.451-0.218-20.321 0-32.12 12.673-26.221 33.869 5.463 19.447 9.614 39.112 14.858 60.308-5.025 0-8.522 0-12.017 0-23.38 0-46.542-0.656-69.922 0.218-9.177 0.437-12.455-3.059-14.858-11.144-17.044-55.282-34.525-110.346-51.787-165.629-1.311-3.933-1.967-8.084-3.059-12.673 339.779 0.218 678.248 0.218 1018.465 0.218zM1076.899 17.185c-344.15 0-687.207 0-1030.483 0 0-16.388 0-31.684 0-47.416 343.712 0 686.988 0 1030.483 0 0 15.951 0 31.028 0 47.416zM882.864 204.446c-3.059 11.799-6.992 22.506-8.304 33.432-1.53 11.799-6.992 13.984-17.918 13.984-196.876-0.437-393.751-0.218-590.627-0.218-2.622 0-5.463 0.656-7.648-0.218-2.841-1.092-6.992-3.059-7.648-5.463-3.933-13.547-6.992-27.095-10.707-41.517 214.357 0 427.838 0 642.85 0z" />
<glyph unicode="&#xe905;" glyph-name="printer" horiz-adv-x="1144" d="M884.432 114.132c0-67.322 0-133.184 0-199.465-208.218 0-415.812 0-624.447 0 0 66.071 0 132.143 0 199.465-4.794 0-8.545 0-12.089 0-40.018 0-79.828-0.209-119.845 0-32.098 0.209-57.943 19.592-66.696 50.439-1.667 5.628-1.876 11.672-1.876 17.508 0 133.393 0.417 266.787-0.417 399.971-0.209 36.892 32.098 68.572 68.781 67.739 43.353-1.043 86.706-0.209 131.309-0.209 0 96.502 0 192.378 0 289.087 208.844 0 416.645 0 625.489 0 0-96.293 0-192.17 0-289.087 4.794 0 8.545 0 12.297 0 40.643 0 81.286 0 121.93 0 36.475 0 65.863-29.388 66.071-66.071 0-133.393 0-266.787 0-399.971 0-39.185-29.597-68.989-68.781-69.406-39.601-0.209-79.202 0-118.803 0-3.751 0-7.712 0-12.923 0zM259.778 358.825c208.635 0 416.436 0 625.28 0 0-67.113 0-133.601 0-200.715 43.144 0 85.246 0 127.14 0 21.051 0 28.763 7.921 28.763 28.971 0 129.433-0.417 259.075 0.417 388.508 0.209 20.425-10.213 30.639-30.639 30.639-292.631-0.417-585.471-0.417-878.102 0-22.51 0-30.639-10.838-30.43-30.43 0.417-129.224 0.209-258.24 0.209-387.465 0-22.302 7.503-30.013 29.805-30.013 38.559 0 77.118 0 115.677 0 3.751 0 7.295 0.417 11.88 0.626 0 67.322 0 133.601 0 199.882zM840.038 315.263c-179.455 0-357.869 0-536.073 0 0-119.428 0-238.024 0-357.035 178.83 0 357.243 0 536.073 0 0 119.22 0 237.815 0 357.035zM303.756 650.414c179.247 0 357.452 0 536.073 0 0 82.12 0 163.615 0 245.11-179.038 0-357.452 0-536.073 0 0-81.912 0-162.99 0-245.11zM973.014 494.094c0-24.803-19.175-44.394-43.561-44.394-24.178-0.209-44.394 19.801-44.603 43.978-0.209 24.595 19.175 43.978 43.978 44.187 25.012 0.209 43.978-18.55 44.187-43.77zM572.418 247.525c58.984 0 117.97 0 177.163 0 11.255 0 19.801-5.836 22.51-15.007 2.501-9.171-0.834-19.592-9.379-24.386-4.377-2.501-9.796-3.96-14.798-3.96-117.344-0.209-234.688-0.209-352.033-0.209-15.215 0-24.386 8.545-24.178 22.302 0.209 13.547 8.962 21.259 25.012 21.259 58.36 0 117.136 0 175.704 0zM570.959 26.176c-58.568 0-117.344 0-175.913 0-16.049 0-24.386 8.754-23.344 23.552 0.834 10.005 7.503 17.508 17.508 18.758 4.168 0.626 8.338 0.626 12.506 0.626 113.384 0 226.976 0 340.361 0 3.127 0 6.252 0 9.379-0.209 13.131-1.043 21.051-9.379 20.842-22.093-0.209-12.089-8.338-20.425-21.259-20.425-37.516-0.209-75.034-0.209-112.342-0.209-22.719 0-45.228 0-67.739 0zM527.397 158.11c43.353 0 86.706 0 130.059 0 16.674 0 24.803-7.086 25.012-20.842 0.209-13.547-9.796-22.927-25.012-22.927-87.123-0.209-174.244 0-261.367 0-10.422 0-19.592 4.377-23.344 14.381-3.127 8.545-2.71 18.55 6.252 24.386 4.794 3.127 11.463 5.002 17.3 5.002 43.77 0.209 87.54 0 131.1 0z" />
<glyph unicode="&#xe906;" glyph-name="smartphones" horiz-adv-x="902" d="M480.36 938.667c8.799-3.826 18.553-6.694 26.586-12.050 17.023-11.284 25.63-28.116 25.821-48.391 0.383-46.479 0.191-93.148 0.191-139.625 0-1.148-0.383-2.487-0.765-4.207-12.815 0-25.438 0-39.402 0 0 3.826 0 7.651 0 11.284 0 41.505 0 82.819 0 124.324 0 21.422-6.694 28.116-27.733 28.116-131.975 0-263.95 0-395.925 0-20.656 0-28.308-7.46-28.308-27.925 0-220.914 0-441.638 0-662.552 0-20.466 7.651-28.116 28.308-28.116 88.557 0 177.114 0 265.862 0 4.017 0 8.225 0 12.815 0 0-13.389 0-26.013 0-40.166-3.634 0-7.268 0-10.903 0-89.322 0-178.452 0-267.775 0-37.488 0-59.102 17.214-67.518 53.746-0.191 0.574-0.765 0.956-1.339 1.339 0 229.521 0 459.043 0 688.564 2.295 6.694 3.826 13.771 6.885 20.275 9.181 20.275 26.395 30.029 46.669 35.385 142.112 0 284.224 0 426.528 0zM901.34 313.221c0-112.275-0.383-224.357 0.191-336.631 0.191-30.029-21.995-54.703-45.33-59.675-7.077-1.53-14.537-2.104-21.804-2.104-132.548-0.191-265.097-0.191-397.837 0-32.898 0-55.659 15.301-64.075 43.609-1.912 6.503-3.060 13.771-3.060 20.656-0.191 223.401-0.191 446.802 0 670.203 0 37.297 27.16 63.884 64.648 63.884 134.462 0 268.923-0.191 403.575 0.191 36.532 0.191 64.266-29.072 64.075-63.501-0.956-112.275-0.383-224.548-0.383-336.631zM861.174 314.369c0 110.553 0 221.105 0 331.658 0 20.275-6.694 26.777-26.777 26.777-131.975 0-263.95 0-395.733 0-22.187 0-29.072-6.885-29.072-28.881 0-220.149 0-440.49 0-660.639 0-21.804 6.694-28.691 28.308-28.691 131.975 0 263.95 0 395.733 0 21.614 0 27.543 6.121 27.543 27.925 0 110.744 0 221.297 0 331.85zM123.646 323.166c74.977 0 149.38 0 224.166 0 0-13.58 0-26.204 0-40.166-3.634 0-6.885 0-10.328 0-75.934 0-151.675 0-227.609 0-20.275 0-27.352 7.268-27.352 27.733 0 173.097 0 346.195 0 519.101 0 19.7 6.885 26.586 26.013 26.586 105.58 0 210.969 0 316.548 0 18.744 0 26.013-7.268 26.013-25.821 0-29.072 0-57.954 0-87.027 0-2.869 0-5.546 0-8.989-13.58 0-26.204 0-39.975 0 0 26.969 0 53.746 0 81.097-96.399 0-191.65 0-287.667 0 0.191-163.534 0.191-327.259 0.191-492.515zM296.933 231.549c0-17.214-13.006-30.22-30.029-30.029-16.832 0-30.029 13.389-29.838 30.411 0 17.405 12.815 29.838 30.22 29.838 17.023 0 29.647-12.623 29.647-30.22zM451.67 344.971c0 86.644 0 173.289 0 259.933 0 19.7 6.121 25.821 25.248 25.821 105.771 0 211.542 0 317.313 0 18.744 0 25.248-6.503 25.438-25.056 0-174.245 0-348.681 0-522.926 0-17.979-6.885-24.674-25.056-24.674-105.771 0-211.542 0-317.313 0-18.936 0-25.63 6.885-25.63 25.821 0 87.027 0 174.054 0 261.080zM492.219 590.369c0-164.299 0-327.642 0-491.367 95.826 0 191.077 0 286.328 0 0 164.299 0 327.834 0 491.367-95.634 0-190.503 0-286.328 0zM635.861-23.602c-17.023 0-30.411 13.006-30.603 29.838-0.191 16.64 13.198 30.029 30.22 30.029 17.405 0 30.22-12.432 30.22-29.647 0.191-17.405-12.432-30.22-29.838-30.22z" />
<glyph unicode="&#xe907;" glyph-name="smartwatch" horiz-adv-x="709" d="M26.493 192.932c0 155.537 0 311.074 0 466.803 0.574 1.722 1.531 3.635 1.531 5.356 1.913 22.767 9.374 44.384 24.871 60.647 17.601 18.557 37.689 35.010 57.968 50.698 15.879 12.053 27.358 26.402 32.141 45.532s10.139 38.072 13.009 57.393c3.252 21.809 15.305 35.966 34.628 42.663 17.792 6.122 36.732 9.566 55.289 12.626 14.731 2.487 29.654 2.87 44.576 4.018 29.271 0 58.733 0 88.003 0 14.157-1.339 28.506-1.531 42.471-4.018 19.896-3.635 39.793-7.27 58.924-13.774 15.688-5.356 27.358-17.218 31.184-34.628 3.635-16.261 7.653-32.714 11.097-48.976 4.591-22.192 12.053-42.663 31.184-57.012 14.157-10.714 27.931-22.001 41.707-33.097 22.958-18.749 38.453-42.28 43.428-71.742 2.487-14.349 2.296-28.888 3.444-44.002 21.619-3.061 34.245-16.453 40.559-36.924 0-30.036 0-59.881 0-89.917-6.314-20.279-18.557-34.245-41.707-37.114 0-19.513-0.191-38.453 0.191-57.585 0-1.531 2.679-4.018 4.4-4.591 12.244-4.783 15.879-9.757 15.879-22.767 0-37.689 0-75.186 0-112.874 0-18.557-2.87-22.384-20.853-28.888 0-14.922 0.191-30.227 0-45.341-0.574-26.402-8.609-50.889-26.592-69.638s-38.453-35.010-58.924-51.081c-14.54-11.478-25.062-25.062-29.462-43.045-4.591-18.749-10.331-37.306-12.818-56.437-3.444-25.062-18.366-38.645-40.367-47.063-25.636-9.757-52.611-11.861-79.586-12.626-38.836-1.148-77.673-1.148-116.509 0-27.549 0.765-55.289 3.061-81.499 13.009-17.601 6.696-32.141 17.027-37.497 36.349-4.208 15.305-7.462 30.801-10.522 46.298-4.591 23.914-11.67 46.106-32.332 61.603-13.774 10.331-26.783 21.427-40.367 31.949-18.749 14.731-32.523 33.097-39.984 55.672-3.061 10.714-4.974 21.809-7.462 32.523zM67.051 426.717c0-73.846 0-147.884 0-221.731 0-15.114 2.679-29.654 10.331-43.045 16.836-29.654 42.854-43.428 76.334-43.428 118.232-0.191 236.462-0.191 354.694 0 8.609 0 17.218 0.574 25.636 1.913 35.010 5.166 66.194 39.219 66.386 74.612 0.574 97.186 0.383 194.374 0.383 291.56 0 3.061-0.765 6.314-1.913 9.183-10.714 27.549-11.67 55.864-6.504 84.368 1.913 10.905 7.079 21.236 8.035 31.949 1.339 14.54 0.574 29.271 0.191 44.002-1.148 43.045-37.114 78.247-80.16 78.247-123.971 0.191-247.941 0-371.911-0.191-7.27 0-14.54-1.339-21.427-3.252-36.924-10.714-59.689-42.28-59.689-82.264-0.383-74.038-0.383-148.076-0.383-221.923zM505.347 774.714c-21.809 29.271-23.34 63.707-32.332 95.465-2.679 9.566-6.696 15.114-15.114 16.836-19.323 3.827-38.645 8.991-58.159 9.183-50.315 0.765-100.631-0.191-150.946-1.913-14.54-0.574-29.079-5.548-43.428-9.566-3.444-0.956-7.653-5.166-8.801-8.801-4.783-17.027-7.653-34.628-12.626-51.654-4.974-16.836-11.478-33.289-17.409-49.741 111.726 0.191 224.219 0.191 338.814 0.191zM165.768 77.762c5.739-14.157 12.244-27.166 16.453-40.941 5.166-16.836 9.566-34.245 12.244-51.654 1.913-12.053 8.035-18.366 18.94-20.088 22.192-3.444 44.576-8.226 66.768-8.801 44.193-0.956 88.578 0 132.771 1.913 16.261 0.765 32.332 5.548 48.211 9.566 4.018 0.956 9.183 5.739 10.331 9.566 5.166 18.175 8.226 37.114 13.392 55.289 4.4 15.305 10.714 30.036 16.261 45.15-111.153 0-223.453 0-335.371 0zM639.267 590.097c-13.392-15.688-13.009-72.125 0.574-81.308 4.018 7.843 3.635 75.569-0.574 81.308zM415.813 426.334c0-44.767-36.732-81.308-81.308-81.308-44.959 0-82.264 37.114-82.073 81.881 0.191 44.193 37.306 81.499 81.691 81.691 44.576 0 81.691-37.306 81.691-82.264zM332.784 385.393c23.34-0.765 41.515 16.070 42.471 39.411 0.956 23.148-17.027 42.471-40.176 43.236-22.001 0.765-41.515-17.984-42.471-40.367-0.956-22.192 17.409-41.515 40.176-42.28zM252.815 323.216c33.862-0.191 60.837-27.549 60.455-61.603-0.191-32.906-28.314-60.455-61.411-60.264-34.054 0.191-61.411 28.314-61.029 62.559 0.574 33.097 28.314 59.689 61.985 59.307zM252.624 283.041c-12.053 0.191-21.427-8.801-21.427-20.471 0-11.287 9.183-20.279 20.661-20.471 11.861-0.191 21.427 8.991 21.427 20.661-0.191 11.097-9.183 20.088-20.661 20.279zM355.359 590.48c0 33.862 27.549 61.411 61.029 61.22 32.714-0.191 60.647-28.123 61.029-61.029s-27.931-61.411-61.22-61.411c-34.054 0.191-60.837 27.166-60.837 61.22zM416.388 569.626c11.287 0.191 20.661 9.374 20.661 20.471 0.191 11.287-10.139 21.619-21.236 21.427-11.478-0.191-20.471-9.949-20.279-21.809 0.383-11.287 9.566-20.088 20.853-20.088zM437.432 426.334c0 34.245 26.783 61.029 60.837 61.029 33.671 0 61.22-27.74 60.837-61.411-0.383-33.289-27.74-60.837-60.837-61.029-33.48 0-60.837 27.549-60.837 61.411zM477.799 427.29c-0.191-11.861 8.609-21.619 20.088-22.001 10.905-0.191 20.661 9.183 20.853 20.279 0.383 12.053-8.418 21.427-20.279 21.619-11.478 0.191-20.471-8.226-20.661-19.896zM170.36 487.554c34.054 0 60.837-27.166 60.837-61.411 0-33.097-27.74-60.837-60.647-61.029s-61.603 28.314-61.794 61.22c0 33.289 27.931 61.22 61.603 61.22zM170.551 447.186c-11.67 0.191-21.427-9.374-21.427-20.853 0-10.714 9.949-20.661 20.661-20.853 11.478-0.191 21.236 9.374 21.236 21.236 0 11.287-9.183 20.471-20.471 20.471zM211.875 580.531c0 28.314 22.575 50.506 51.081 50.315 27.549-0.191 50.315-22.958 50.315-50.506 0-28.123-22.958-50.889-51.081-50.889s-50.315 22.575-50.315 51.081zM406.057 323.216c28.314 0 50.889-22.767 50.698-50.889-0.191-27.166-23.531-50.506-50.506-50.698-28.314-0.191-51.081 22.958-50.889 52.037 0.191 27.74 22.575 49.741 50.698 49.55zM508.218 344.069c16.644 0 30.61-13.392 30.801-29.845s-14.731-31.375-30.993-30.993c-16.453 0.383-30.227 14.349-30.036 30.801 0 16.453 13.583 29.845 30.227 30.036zM160.029 529.451c-16.644 0-30.227 13.201-30.227 29.845-0.191 17.218 13.774 31.184 30.61 30.993 16.261-0.383 30.419-14.54 30.227-30.801-0.191-16.453-13.774-29.845-30.61-30.036z" />
<glyph unicode="&#xe908;" glyph-name="menu-dark" horiz-adv-x="1280" d="M120 32v104h1040v-104h-1040zM120 503.465h1040v-104h-1040v104zM120 864h1040v-104h-1040v104z" />
<glyph unicode="&#xe915;" glyph-name="speaker" horiz-adv-x="1028" d="M205.756 938.667c205.858 0 411.499 0 617.358 0 1.522-0.653 3.261-1.739 4.782-1.957 33.694-5.652 58.041-33.912 58.041-67.822 0-295.201 0-590.403 0-885.603 0-37.389-29.781-68.257-66.735-68.475-203.467-0.218-407.152-0.218-610.619 0.218-10.652 0-22.39 3.695-31.737 8.912-25.216 14.347-34.781 37.172-34.781 66.3 0.435 290.419 0.218 581.055 0.218 871.474 0 3.261 0 6.521 0.218 9.782 0.435 21.738 9.347 39.78 27.173 51.518 10.652 7.174 23.912 10.652 36.085 15.651zM187.931 425.651c0-145.209 0-290.419 0-435.628 0-23.042 6.739-29.781 29.564-29.781 197.815 0 395.63 0 593.229 0 22.39 0 29.564 7.39 29.564 29.999 0 290.419 0 581.055 0 871.474 0 23.042-8.043 31.086-31.519 31.086-196.728 0-393.457 0-589.968 0-23.26 0-31.086-7.825-31.086-31.303 0.218-145.209 0.218-290.636 0.218-435.845zM514.218 7.413c-127.602-0.218-232.378 103.691-232.378 230.856-0.218 129.775 102.385 233.248 231.727 233.466 128.689 0.435 233.466-103.691 233.466-232.378-0.218-127.385-104.777-231.727-232.813-231.944zM514.435 53.063c103.255 0.435 187.381 84.126 186.512 186.946-0.869 108.472-89.778 187.164-187.381 186.077-104.995-1.087-186.512-83.474-186.294-190.207 0.435-100.212 85.212-183.033 187.164-182.816zM513.565 566.731c-77.387 0-138.471 61.736-138.471 139.34 0.218 76.735 62.823 139.34 139.558 138.905 76.518-0.218 139.558-63.692 138.688-141.296-0.869-79.995-68.692-139.34-139.775-136.949zM513.782 612.38c52.171-0.218 93.908 41.084 93.908 92.821 0.218 51.518-42.171 93.908-93.473 94.126-51.084 0.218-93.255-41.737-93.473-92.386 0-53.693 39.998-94.56 93.038-94.56zM792.681 822.369c0.218-13.26-8.912-22.607-21.738-23.042-12.825-0.218-23.912 10.216-23.912 22.607 0.218 11.738 11.087 22.825 22.825 23.042 12.173 0.218 22.607-10.216 22.825-22.607zM792.681 30.238c0-12.825-9.347-22.607-22.172-22.607s-23.694 10.652-23.476 23.042c0.435 12.173 11.087 22.39 23.476 22.172 12.825-0.218 22.172-9.782 22.172-22.607zM256.406 799.544c-12.609 0.653-21.521 10.652-20.868 23.912 0.653 12.391 11.521 22.607 23.476 21.738 13.042-0.869 22.172-11.521 21.303-24.998-0.869-12.825-10.652-21.303-23.912-20.652zM280.318 30.021c0-12.825-10-22.607-22.607-22.39-12.825 0-22.39 10-22.39 22.825s10 22.607 22.825 22.39c12.825-0.218 22.39-10 22.172-22.825zM514 147.405c-50.867 0-92.604 41.302-92.821 91.951-0.218 50.867 41.955 93.038 93.038 93.038s92.169-40.867 92.604-92.169c0.435-51.302-41.084-92.821-92.821-92.821zM514.218 193.055c26.52 0 46.519 20.216 46.736 46.519 0 26.086-20.434 46.954-46.519 46.954-26.303 0-48.041-21.521-47.606-47.389 0.218-25.869 21.086-46.085 47.389-46.085zM468.35 705.636c0 25.651 20.434 46.085 45.867 46.085s45.867-20.652 45.65-46.301c0-25.869-20.216-45.867-46.085-45.65-26.086 0-45.432 19.781-45.432 45.867z" />
<glyph unicode="&#xe916;" glyph-name="tvs" horiz-adv-x="1028" d="M-0.005 137.971c0 219.547 0 439.094 0 658.833 342.478 0 684.956 0 1027.434 0 0.192-3.842 0.577-7.684 0.577-11.525 0-211.48 0-422.959 0-634.631 0-3.65 0-7.491 0-12.294-5.762 0-9.989 0-14.406 0-333.45 0-666.901 0-1000.351 0-4.225 0-8.836-0.384-13.254-0.384zM40.331 756.276c0-5.187 0-8.836 0-12.677 0-184.012 0-368.025 0-552.037 0-13.061 0-13.061 12.869-13.061 307.52 0 615.232 0 922.751 0 12.677 0 12.677 0 12.677 12.294 0 184.396 0 368.793 0 552.997 0 12.485 0 12.485-12.485 12.485-307.904 0-615.807 0-923.711 0-3.457 0-6.915 0-12.101 0zM512.847 96.098c93.351 0 186.894 0 280.244 0 3.842 0 7.684 0 11.525-0.384 11.332-0.96 17.864-8.452 17.671-19.784 0-11.141-6.915-18.439-18.248-19.208-2.497-0.192-5.187-0.192-7.684-0.192-188.814 0-377.629 0-566.443 0-15.366 0-22.089 4.225-24.97 15.366s4.61 22.281 15.943 23.818c3.842 0.384 7.684 0.384 11.525 0.384 93.543 0 186.894 0 280.436 0zM412.006 455.671c0 41.489-0.192 83.171 0.192 124.66 0 4.994 1.345 11.141 4.418 14.79 5.762 6.722 12.677 2.882 19.016-0.768 50.133-29.196 100.265-58.2 150.591-87.204 22.666-13.061 45.331-26.123 67.804-39.184 13.254-7.684 13.446-18.439 0.384-26.123-72.798-42.257-145.597-84.323-218.394-126.581-15.174-8.836-24.010-3.65-24.010 13.637 0 42.45 0 84.707 0 126.773z" />
</font>
</defs>
</svg>
